Vídeo Internacional del día #001 / Remy LaCroix (NaughtyAmerica)

Remy LaCroix, Johnny Castle (NaughtyAthletics.com

09/06/2014 | MP4 (Ultra HD) | Tamaño: 3.49 Gb | Resolución: 4096×2160 | Duración: 18 min

¡Nueva sección! Recibimos muchísimos comentarios diciendo que Pornotería.com sería perfecta si además incluyésemos vídeos de porno internacional. Lo que identifica a nuestra web es que es únicamente porno en español o con actrices que han rodado aquí. Pero… ¿y si añadimos una sección con un vídeo “al día” con porno internacional? En principio vamos a probar, y según os parezca seguimos o no. Como siempre admitimos peticiones, y seguramente las entradas vayan sin texto, todas bajo la categoría de Porno Internacional :)


NaughtyAmerica
Remy LaCroix

NaughtyAthletics

Escena del 09/06/2014

51342509_035adf5b703e.jpeg
Format : MPEG-4
Codec ID : M4V
File size : 3.49 GiB
Duration : 18mn 31s
Overall bit rate mode : Variable
Overall bit rate : 27.0 Mbps
Encoded date : UTC 2014-06-07 04:14:32
Tagged date : UTC 2014-06-07 04:16:34
©TIM : 00:00:00:00
©TSC : 24000
©TSZ : 1001

Video
ID : 1
Format : AVC
Format/Info : Advanced Video Codec
Format profile : [email protected]
Format settings, CABAC : No
Format settings, ReFrames : 2 frames
Format settings, GOP : M=1, N=23
Codec ID : avc1
Codec ID/Info : Advanced Video Coding
Duration : 18mn 31s
Bit rate mode : Variable
Bit rate : 26.8 Mbps
Maximum bit rate : 100.0 Mbps
Width : 4 096 pixels
Height : 2 160 pixels
Display aspect ratio : 1.896
Frame rate mode : Constant
Frame rate : 23.976 fps
Standard : NTSC
Color space : YUV
Chroma subsampling : 4:2:0
Bit depth : 8 bits
Scan type : Progressive
Bits/(Pixel*Frame) : 0.126
Stream size : 3.47 GiB (99%)
Language : English
Encoded date : UTC 2014-06-07 04:14:32
Tagged date : UTC 2014-06-07 04:14:32
Color primaries : BT.709
Transfer characteristics : BT.709
Matrix coefficients : BT.709

Audio
ID : 2
Format : AAC
Format/Info : Advanced Audio Codec
Format profile : LC
Codec ID : 40
Duration : 18mn 31s
Source duration : 18mn 31s
Bit rate mode : Variable
Bit rate : 157 Kbps
Maximum bit rate : 254 Kbps
Channel(s) : 2 channels
Channel positions : Front: L R
Sampling rate : 48.0 KHz
Compression mode : Lossy
Stream size : 20.8 MiB (1%)
Source stream size : 20.8 MiB (1%)
Language : English

Aparecen en este vídeo porno español:

Trackback desde tu web.

Vídeos porno español ONLINE gratis y descarga MEGA